Star Trek Beyond (2016) 2160p 4K UltraHD BluRay x265 (HEVC 10bit BT709)

USA | Hong Kong | China Movies / Adventure 4K
Producer: Justin Lin
Cast:Chris Pine, Zachary Quinto, Karl Urban, Zoe Saldana, Simon Pegg, John Cho, Anton Yelchin, Idris Elba, Sofia Boutella, Joe Taslim, Lydia Wilson, Deep Roy, Melissa Roxburgh, Anita Brown, Doug Jung...
IMDB 7.10
File Size 55,27 GB
Film description
[justify][/justify]The intrepid Starfleet cruiser crew of the Enterprise explores the unknown depths of space. During this total danger of traveling, the heroes face a mysterious force that threatens not only their mission and the stability of the Federation, but the entire world order.
Feedback on the film:
Acquaintance with the star crew
Startrek or something familiar from childhood
As long as I can remember, the theme of a start-up or star wars has always bothered me around the male half. For me, very far from wars, all the more stellar, all the talk about the battles sounded at least not clear, and the only thing I knew about the start-up was that one of the heroes-Spock and he was unusually pushing his fingers in his arms ( And that, I learned this knowledge from Sheldon from the theory of the big bang). With such absolute ignorance, I went to this film. I honestly expected that it would be boring, incomprehensible and stupid, and that after a hard day's work, I would quietly snooze in my armchair. But after the first minutes of watching the movie, I realized that it would be something.
Firstly, the film is shot very cool. Constant dynamics completely immerses in the atmosphere of the star ship. The graphics are gorgeous. Special effects at altitude. The cast is very harmonious. Although the only one who bothered me a little was Captain Chris Pine, who is very cute for such a role, in my opinion. Throughout the whole movie, she only expected that he would either eroticly undress, or suffer cute on the camera. In general, let the fans forgive me, as for me, he is too "sweet" for such a character, there was not enough brutality.
Secondly, even if you are the same "crazy fan" like me, and also for you this film is the first of the star wars, and you want to see a good movie novelty, then a start-up for you. The plot is understandable, the film keeps in suspense, but at the same time it does not strain and does not load the brain. It's easy to watch and 2 hours fly by like one instant. After even wanting to revise all the parts, all of a sudden I will still be filled with love for this genre of films.

2160p UHD 4K Blu-Ray Rip
HEVC 10 Bits BT709
English Dolby ATMOS 7.1 Audio

Note:
Audio + Subs + Chapter files are from BD50 HD Blu-Ray synced and mixed to UHD-4K Video.

High End CPU + GPU is required to play very high bitrate 4K.
Fully tested with :
- PC with PotPlayer V 1.6 / Xeon Broadwell CPU / NVidia GTX1080
- Nvidia Shield streaming through PLEX on Samsung TV

Format : Matroska
File size : 55.3 GiB
Duration : 2 h 2 min
Overall bit rate mode : Variable
Overall bit rate : 64.6 Mb/s

Video
Format : HEVC
Format/Info : High Efficiency Video Coding
Format profile : Main 10@L6.1@Main
Codec ID : V_MPEGH/ISO/HEVC
Duration : 2 h 2 min
Bit rate : 59.6 Mb/s
Width : 3 840 pixels
Height : 2 160 pixels
Display aspect ratio : 16:9
Frame rate mode : Constant
Frame rate : 23.976 (24000/1001) FPS
Color space : YUV
Chroma subsampling : 4:2:0
Bit depth : 10 bits
Bits/(Pixel*Frame) : 0.300
Stream size : 50.9 GiB (92%)
Language : English
Default : Yes
Forced : No
Color range : Limited
Color primaries : BT.709
Transfer characteristics : BT.709
Matrix coefficients : BT.601

Audio #1
Format : Atmos / TrueHD
Codec ID : A_TRUEHD
Duration : 2 h 2 min
Bit rate mode : Variable
Bit rate : 4 367 kb/s
Maximum bit rate : 7 641 kb/s
Channel(s) : Object Based / 8 channels
Channel positions : Object Based / Front: L C R, Side: L R, Back: L R, LFE
Sampling rate : / 48.0 kHz
Frame rate : 1 200.000 FPS (40 spf)
Compression mode : Lossless
Delay relative to video : 2 s 50 ms
Stream size : 3.73 GiB (7%)
Language : English
Default : No
Forced : No

Chapters : YES

Screenshots of the movie:









File size: 55,27 GB


download 4k movies

Watch the movie trailer Star Trek Beyond (2016) 2160p 4K UltraHD BluRay x265 (HEVC 10bit BT709)
Watch the movie trailer
Comments
  • bowtiesmilelaughingblushsmileyrelaxedsmirk
    heart_eyeskissing_heartkissing_closed_eyesflushedrelievedsatisfiedgrin
    winkstuck_out_tongue_winking_eyestuck_out_tongue_closed_eyesgrinningkissingstuck_out_tonguesleeping
    worriedfrowninganguishedopen_mouthgrimacingconfusedhushed
    expressionlessunamusedsweat_smilesweatdisappointed_relievedwearypensive
    disappointedconfoundedfearfulcold_sweatperseverecrysob
    joyastonishedscreamtired_faceangryragetriumph
    sleepyyummasksunglassesdizzy_faceimpsmiling_imp
    neutral_faceno_mouthinnocent